<?xml version="1.0" standalone="no"?>
<!DOCTYPE svg PUBLIC "-//W3C//DTD SVG 1.1//EN" "http://www.w3.org/Graphics/SVG/1.1/DTD/svg11.dtd" >
<svg>
<metadata>
Created by FontForge 20120731 at Tue Aug 27 10:41:34 2019
 By www
(c)2010 Paul Barnes and Christian Schwartz, under exclusive license to Schwartzco Inc./Commercial Type. All rights reserved.
</metadata>
<defs>
<font id="PublicoHeadlineWeb-Bold" horiz-adv-x="214" >
  <font-face 
    font-family="Publico Headline Web Bold"
    font-weight="700"
    font-stretch="normal"
    units-per-em="1000"
    panose-1="2 4 8 2 6 5 4 6 2 3"
    ascent="800"
    descent="-200"
    x-height="519"
    cap-height="693"
    bbox="-122 -212 1014 761"
    underline-thickness="50"
    underline-position="-50"
    unicode-range="U+000D-201D"
  />
<missing-glyph 
 />
    <glyph glyph-name=".notdef" 
 />
    <glyph glyph-name=".null" horiz-adv-x="0" 
 />
    <glyph glyph-name="nonmarkingreturn" unicode="&#xd;" 
 />
    <glyph glyph-name="NULL" horiz-adv-x="0" 
 />
    <glyph glyph-name="NULL" horiz-adv-x="0" 
 />
    <glyph glyph-name="space" unicode=" " 
 />
    <glyph glyph-name="comma" unicode="," horiz-adv-x="234" 
d="M18 -93q57 26 83.5 56t24.5 63q-4 -4 -12 -7t-18 -3q-29 0 -47.5 18.5t-18.5 51.5t24 52.5t58 19.5q36 0 63.5 -25t27.5 -75q0 -66 -46 -110.5t-131 -62.5z" />
    <glyph glyph-name="hyphen" unicode="-" horiz-adv-x="276" 
d="M33 339h221l-13 -100h-220z" />
    <glyph glyph-name="period" unicode="." horiz-adv-x="229" 
d="M114 -7q-35 0 -59 24.5t-24 58.5q0 35 24 58.5t59 23.5q16 0 31.5 -6t27 -17t18.5 -26t7 -33q0 -17 -7 -32t-18.5 -26.5t-27 -18t-31.5 -6.5z" />
    <glyph glyph-name="zero" unicode="0" horiz-adv-x="686" 
d="M339 -12q-60 0 -115 20.5t-97.5 63.5t-68 109t-25.5 157q0 100 31 170t77.5 113.5t101.5 63.5t103 20q56 0 111 -21.5t98.5 -65t70.5 -110t27 -157.5q0 -96 -28.5 -164.5t-73.5 -113t-101 -65t-111 -20.5zM343 27q33 0 56.5 15t38.5 50.5t21.5 95t6.5 148.5
q0 100 -7.5 164.5t-23 101t-38.5 50.5t-54 14q-29 0 -52 -13t-38.5 -47.5t-23.5 -95.5t-8 -157t7 -159t21.5 -100t37.5 -52t56 -15z" />
    <glyph glyph-name="one" unicode="1" horiz-adv-x="394" 
d="M22 28l42 7q13 3 21.5 6t13.5 10.5t7 20.5t2 36v433l-85 6v30q74 15 137 46.5t103 77.5l27 -6v-587q0 -23 2 -36t6.5 -20.5t13 -10.5t21.5 -6l40 -7v-28h-351v28z" />
    <glyph glyph-name="two" unicode="2" horiz-adv-x="534" 
d="M14 81q67 54 116.5 100t93.5 96q25 28 44.5 55t33 56t20 62.5t6.5 74.5q0 40 -6.5 67t-18.5 43.5t-29 23.5t-37 7q-32 0 -42 -11t-12 -38q-2 -60 -23 -81.5t-64 -21.5q-35 0 -53 17.5t-18 49.5q0 24 14.5 46.5t43 40t71 27.5t99.5 10q56 0 103 -12.5t80.5 -37.5
t52.5 -62.5t19 -88.5q0 -53 -30 -102t-81 -95t-118.5 -89t-142.5 -84v-6h252q19 0 30.5 2.5t20.5 10.5t17 24t20 42h29l-15 -207h-476v81z" />
    <glyph glyph-name="three" unicode="3" horiz-adv-x="542" 
d="M228 -12q-109 0 -162.5 31t-53.5 87q0 32 17.5 49t52.5 17q18 0 31.5 -4t23.5 -14t16.5 -27.5t9.5 -44.5q3 -17 6 -27.5t9.5 -16.5t17.5 -8.5t29 -2.5q59 0 81.5 45.5t22.5 123.5q0 42 -7.5 70t-22.5 44t-38.5 22.5t-55.5 6.5h-49v43h40q64 0 92 32t28 113
q0 72 -22 105.5t-65 33.5q-21 0 -31 -7.5t-12 -30.5q-3 -28 -7.5 -46.5t-13.5 -30t-23 -16t-36 -4.5q-35 0 -52 16t-17 45q0 27 16 48t44 35.5t67 22t86 7.5q54 0 98 -11.5t75 -32.5t48 -52t17 -70q0 -28 -10.5 -54t-33 -48t-57 -39t-82.5 -27v-3q45 -4 83.5 -16t67 -34
t44.5 -53.5t16 -73.5t-17.5 -79t-53.5 -64.5t-90 -43.5t-127 -16z" />
    <glyph glyph-name="four" unicode="4" horiz-adv-x="588" 
d="M217 28l36 7q13 3 21 6t12.5 10.5t6.5 20.5t2 36v86h-282v54l346 445h111v-427h102l-10 -72h-92v-86q0 -23 2 -36t6.5 -20.5t13 -10.5t21.5 -6l38 -7v-28h-334v28zM295 266v268h-3l-206 -265v-3h209z" />
    <glyph glyph-name="five" unicode="5" horiz-adv-x="529" 
d="M219 -12q-97 0 -147.5 32t-50.5 82q0 29 18 46.5t53 17.5q38 0 57 -18.5t23 -75.5q3 -28 14 -36.5t43 -8.5q59 0 91 35.5t32 109.5q0 39 -12 66t-34 44t-52 24.5t-67 7.5q-40 0 -67 -4.5t-44 -10.5l-11 8l42 386h286q12 0 19.5 2t13.5 7.5t12.5 16t15.5 27.5h30l-20 -179
h-322l-14 -131q15 5 42.5 10.5t74.5 5.5q57 0 104.5 -14t82 -42t54 -70t19.5 -98q0 -51 -20 -94.5t-57 -76t-90 -51t-119 -18.5z" />
    <glyph glyph-name="six" unicode="6" horiz-adv-x="600" 
d="M306 -12q-56 0 -107 18.5t-90 58.5t-62 101t-23 147q0 106 31.5 180.5t82 121.5t114 68.5t128.5 21.5q81 0 128 -25.5t47 -72.5q0 -30 -17.5 -47t-53.5 -17q-41 0 -58 18t-22 65q-3 24 -11.5 32t-31.5 8q-29 0 -55.5 -14.5t-46.5 -48t-33 -90t-16 -140.5q24 16 60 30.5
t89 14.5q48 0 88.5 -12.5t69 -38t44.5 -63.5t16 -89q0 -50 -18.5 -92t-53 -72t-85 -46.5t-114.5 -16.5zM309 27q27 0 44 10t27 32t13.5 55.5t3.5 81.5q0 87 -26 120t-78 33q-26 0 -46 -6t-38 -17v-27q0 -76 4 -129.5t15 -87.5t30.5 -49.5t50.5 -15.5z" />
    <glyph glyph-name="seven" unicode="7" horiz-adv-x="510" 
d="M103 0q19 90 51 168.5t74 148t92 131t105 118.5h-302q-16 0 -26 -2.5t-17.5 -11t-15 -24.5t-17.5 -43h-29l18 208h464v-76q-53 -71 -88.5 -143t-59 -147.5t-37 -156t-20.5 -170.5h-192v0z" />
    <glyph glyph-name="eight" unicode="8" horiz-adv-x="570" 
d="M281 -12q-57 0 -104.5 11.5t-82 33t-53.5 53.5t-19 74q0 27 11.5 51t32 44.5t48 37.5t60.5 31v4q-60 32 -91.5 77.5t-31.5 102.5q0 46 20.5 82.5t54 62t77.5 39t91 13.5q43 0 84 -9.5t72.5 -29t51 -49.5t19.5 -72q0 -24 -11 -45t-30 -39t-43 -33.5t-49 -27.5v-3
q79 -39 119.5 -85t40.5 -114q0 -43 -20.5 -81t-56 -66.5t-84.5 -45.5t-106 -17zM290 29q54 0 90.5 27.5t36.5 81.5q0 27 -12 47.5t-37.5 39.5t-65.5 38.5t-96 45.5q-20 -23 -37 -54.5t-17 -82.5q0 -69 33 -106t105 -37zM352 417q18 21 32 51t14 74q0 122 -112 122
q-50 0 -79.5 -25.5t-29.5 -70.5q0 -47 44 -80.5t131 -70.5z" />
    <glyph glyph-name="nine" unicode="9" horiz-adv-x="600" 
d="M226 -13q-84 0 -132.5 26.5t-48.5 74.5q0 30 17 47t57 17q36 0 53.5 -19t25.5 -66q4 -23 12.5 -31.5t32.5 -8.5q35 0 61.5 14t44.5 48t28.5 89.5t12.5 139.5q-25 -16 -62 -31t-88 -15q-48 0 -88 13t-68.5 38.5t-44 64t-15.5 88.5q0 51 18.5 93t53.5 72t85 46.5t113 16.5
q58 0 109 -18.5t89.5 -58t61 -101t22.5 -146.5q0 -102 -27.5 -176.5t-75 -122.5t-111.5 -71t-136 -23zM304 332q26 0 47.5 6.5t39.5 16.5v29q0 76 -4 129.5t-15 87.5t-30.5 49.5t-50.5 15.5q-26 0 -43 -10t-26.5 -32t-13.5 -56t-4 -82q0 -43 6 -72.5t18.5 -47.5t31 -26
t44.5 -8z" />
    <glyph glyph-name="A" unicode="A" horiz-adv-x="689" 
d="M-3 28l25 7q11 3 19 8t15.5 15.5t15 28.5t18.5 49l201 557h100l207 -560q10 -28 17.5 -45.5t15 -28.5t15.5 -17t19 -9l21 -5v-28h-333v28l28 7q20 5 28 14.5t8 25.5q0 13 -5.5 32t-13.5 41l-25 71h-199l-24 -72q-7 -21 -11 -38t-4 -30q0 -21 10 -29.5t33 -14.5l28 -7v-28
h-209v28zM188 263h170l-83 244h-5z" />
    <glyph glyph-name="B" unicode="B" horiz-adv-x="658" 
d="M17 28l34 7q11 3 18.5 6t12 10.5t6.5 20.5t2 36v477q0 23 -2 36t-6.5 20.5t-12 10.5t-18.5 6l-34 7v28h320q137 0 202 -39t65 -125q0 -68 -47 -105t-136 -51v-5q105 -12 160.5 -51.5t55.5 -121.5q0 -96 -68.5 -145.5t-202.5 -49.5h-349v28zM345 44q25 0 44.5 7t32.5 24.5
t20 46t7 72.5q0 42 -6.5 70.5t-21 45.5t-37.5 24.5t-55 7.5h-59v-233q0 -21 2.5 -34t11 -20t23 -9t38.5 -2zM322 384q60 0 83.5 29.5t23.5 98.5q0 41 -6 67.5t-19 42t-32 21.5t-45 6q-18 0 -33.5 -2t-23.5 -4v-259h52z" />
    <glyph glyph-name="C" unicode="C" horiz-adv-x="624" 
d="M369 -12q-74 0 -137 22t-108.5 66t-71 110t-25.5 155q0 97 29.5 166t80 113t116.5 64.5t138 20.5q58 0 108 -7t82 -16l11 -207h-31q-22 47 -42.5 81.5t-37.5 59.5q-20 26 -42 36.5t-59 10.5q-44 0 -74.5 -16.5t-50 -53t-28 -94t-8.5 -138.5q0 -98 9.5 -161.5t29.5 -101.5
t50.5 -53t71.5 -15q44 0 68 13t46 43q20 29 38 62.5t38 80.5h29l-11 -200q-35 -15 -90.5 -28t-128.5 -13z" />
    <glyph glyph-name="D" unicode="D" horiz-adv-x="730" 
d="M17 28l34 7q11 3 18.5 6t12 10.5t6.5 20.5t2 36v477q0 23 -2 36t-6.5 20.5t-12 10.5t-18.5 6l-34 7v28h339q78 0 142 -19t109.5 -59.5t70.5 -104t25 -151.5q0 -86 -24.5 -152.5t-70.5 -112.5t-111 -70t-146 -24h-334v28zM341 44q93 0 132.5 72t39.5 219q0 88 -10.5 148.5
t-32 97t-54.5 52.5t-77 16q-23 0 -41 -2.5t-26 -6.5v-505q0 -30 3 -47.5t10.5 -27.5t21 -13t34.5 -3z" />
    <glyph glyph-name="E" unicode="E" horiz-adv-x="618" 
d="M17 28l34 7q11 3 18.5 6t12 10.5t6.5 20.5t2 36v477q0 23 -2 36t-6.5 20.5t-12 10.5t-18.5 6l-34 7v28h549l10 -202h-31q-19 42 -32.5 66t-24.5 41q-12 18 -23 28t-24.5 15t-32 6.5t-44.5 1.5q-39 0 -60 -3.5t-32 -6.5v-258h27q27 0 44 1.5t27.5 5t16.5 9.5t11 14
q11 19 17.5 36t13.5 41h30v-261h-30q-7 23 -13.5 41t-17.5 40q-5 9 -10.5 15t-16 9.5t-27.5 4.5t-45 1h-27v-194q0 -34 2 -53.5t11.5 -30t30 -13.5t57.5 -3q30 0 49.5 2.5t33.5 9t24.5 18t23.5 30.5q14 20 29 53t35 81h32l-14 -238h-569v28z" />
    <glyph glyph-name="F" unicode="F" horiz-adv-x="591" 
d="M17 28l34 7q11 3 18.5 6t12 10.5t6.5 20.5t2 36v477q0 23 -2 36t-6.5 20.5t-12 10.5t-18.5 6l-34 7v28h543l10 -207h-31q-18 42 -31 65.5t-27 44.5q-11 16 -21 26.5t-22.5 16.5t-30.5 8t-46 2q-35 0 -56.5 -3t-32.5 -6v-270h18q29 0 47 1.5t29 5t17 9.5t11 14
q11 18 17.5 36.5t14.5 45.5h29v-272h-29q-8 26 -14.5 46t-17.5 40q-6 10 -12 16t-16.5 9.5t-28.5 4.5t-47 1h-18v-219q0 -23 1.5 -36t5.5 -20t12 -10t21 -6l45 -8v-28h-340v28z" />
    <glyph glyph-name="G" unicode="G" horiz-adv-x="690" 
d="M386 -12q-177 0 -268 90.5t-91 265.5q0 97 30.5 166t82.5 112t121.5 63t146.5 20q62 0 109.5 -6.5t79.5 -16.5l11 -210h-31q-21 47 -38.5 77.5t-35.5 56.5q-12 17 -22.5 28t-23.5 17.5t-29 9t-38 2.5q-91 0 -132 -72t-41 -231q0 -91 8 -154t27 -102t50.5 -56.5
t78.5 -17.5q26 0 44 6t32 14v150q0 23 -2 36.5t-6.5 20.5t-12 10t-19.5 6l-34 8v27h304v-27l-25 -7q-10 -3 -16.5 -6t-10 -10.5t-5 -21t-1.5 -36.5v-174q-22 -8 -51 -15t-61.5 -12t-66 -8t-64.5 -3z" />
    <glyph glyph-name="H" unicode="H" horiz-adv-x="768" 
d="M17 28l34 7q11 3 18.5 6t12 10.5t6.5 20.5t2 36v477q0 23 -2 36t-6.5 20.5t-12 10.5t-18.5 6l-34 7v28h327v-28l-33 -7q-12 -3 -19.5 -6.5t-12 -10.5t-6 -20t-1.5 -36v-208h224v208q0 23 -1.5 36t-6 20t-12 10.5t-19.5 6.5l-33 7v28h327v-28l-33 -7q-12 -3 -19.5 -6
t-12 -10.5t-6.5 -20.5t-2 -36v-477q0 -23 2 -36t6.5 -20.5t12 -10.5t19.5 -6l33 -7v-28h-327v28l33 7q12 3 19.5 6.5t12 10.5t6 20t1.5 36v223h-224v-223q0 -23 1.5 -36t6 -20t12 -10.5t19.5 -6.5l33 -7v-28h-327v28z" />
    <glyph glyph-name="I" unicode="I" horiz-adv-x="368" 
d="M17 28l37 7q12 3 19.5 6t12 10.5t6 20.5t1.5 36v477q0 23 -1.5 36t-6 20.5t-12 10.5t-19.5 6l-37 7v28h335v-28l-37 -7q-12 -3 -20 -6t-12.5 -10.5t-6 -20.5t-1.5 -36v-477q0 -23 1.5 -36t6 -20.5t12.5 -10.5t20 -6l37 -7v-28h-335v28z" />
    <glyph glyph-name="J" unicode="J" horiz-adv-x="362" 
d="M23 -184q-74 0 -109.5 25.5t-35.5 63.5q0 31 18.5 48.5t50.5 17.5q38 0 56.5 -19.5t27.5 -72.5q3 -15 6.5 -19t12.5 -4q18 0 29 17.5t11 62.5v649q0 23 -1.5 36t-6 20.5t-12 10.5t-19.5 6l-35 7v28h329v-28l-34 -7q-12 -3 -19.5 -6t-12 -10.5t-6 -20.5t-1.5 -36v-521
q0 -55 -17 -100.5t-49.5 -78.5t-78.5 -51t-104 -18z" />
    <glyph glyph-name="K" unicode="K" horiz-adv-x="718" 
d="M490 0q-55 75 -104 158.5t-90 170.5v18l177 204q19 22 26.5 40t7.5 30q0 27 -33 36l-29 8v28h241v-28l-23 -6q-14 -4 -24.5 -9t-22 -14t-25.5 -24t-35 -38l-128 -143q24 -47 52.5 -98t58.5 -100t60 -94t56 -80q9 -12 15 -16.5t17 -7.5l30 -7v-28h-227zM17 28l34 7
q11 3 18.5 6t12 10.5t6.5 20.5t2 36v477q0 23 -2 36t-6.5 20.5t-12 10.5t-18.5 6l-34 7v28h327v-28l-33 -7q-12 -3 -19.5 -6.5t-12 -10.5t-6 -20t-1.5 -36v-477q0 -23 1.5 -36t5.5 -20t12 -10.5t20 -6.5l33 -7v-28h-327v28z" />
    <glyph glyph-name="L" unicode="L" horiz-adv-x="597" 
d="M17 28l34 7q11 3 18.5 6t12 10.5t6.5 20.5t2 36v477q0 23 -2 36t-6.5 20.5t-12 10.5t-18.5 6l-34 7v28h334v-28l-40 -8q-12 -3 -19.5 -6t-12 -10t-6 -20t-1.5 -36v-453q0 -29 2 -46t10 -26.5t25.5 -12.5t49.5 -3q30 0 49.5 2.5t33 8.5t24 17t21.5 29q16 25 32 57.5
t37 86.5h32l-16 -245h-555v28z" />
    <glyph glyph-name="M" unicode="M" horiz-adv-x="878" 
d="M17 28l30 7q12 3 20 6t13.5 11.5t7.5 23.5t2 42v467q0 23 -2 36t-6.5 20.5t-12 10.5t-18.5 6l-34 7v28h281l142 -417h3l139 417h280v-28l-34 -7q-12 -3 -19.5 -6t-12 -10.5t-6.5 -20.5t-2 -36v-477q0 -23 2 -36t6.5 -20.5t12 -10.5t19.5 -6l34 -7v-28h-328v28l33 7
q12 3 19.5 6t12 10.5t6 20.5t1.5 36v491h-4l-192 -584h-65l-199 584h-4v-476q0 -28 1.5 -44t6.5 -25t13.5 -12.5t23.5 -6.5l31 -7v-28h-201v28z" />
    <glyph glyph-name="N" unicode="N" horiz-adv-x="698" 
d="M146 576h-4v-453q0 -28 1.5 -44t7 -25t14.5 -12.5t24 -6.5l36 -7v-28h-208v28l30 7q12 3 20 6t13.5 11.5t7.5 23.5t2 42v467q0 23 -2 36t-6.5 20.5t-12 10.5t-18.5 6l-34 7v28h263l274 -404h4v281q0 28 -1.5 44t-6.5 24.5t-14.5 12.5t-24.5 7l-38 7v28h210v-28l-30 -7
q-12 -3 -20 -6t-13.5 -11.5t-7.5 -23.5t-2 -42v-576h-71z" />
    <glyph glyph-name="O" unicode="O" horiz-adv-x="728" 
d="M360 -12q-65 0 -125 21t-106.5 64t-74.5 109t-28 156q0 99 31 168.5t80 113.5t110 64.5t121 20.5q64 0 124.5 -20t107 -62.5t74.5 -109t28 -159.5q0 -99 -31 -169t-80 -113.5t-110 -63.5t-121 -20zM366 30q37 0 64.5 14t45.5 48.5t27 93t9 146.5t-8 150.5t-26 102.5
t-46.5 59t-69.5 19q-36 0 -63.5 -14.5t-46 -49t-27.5 -93.5t-9 -147q0 -87 7.5 -149.5t25.5 -102.5t46.5 -58.5t70.5 -18.5z" />
    <glyph glyph-name="P" unicode="P" horiz-adv-x="643" 
d="M17 28l34 7q11 3 18.5 6t12 10.5t6.5 20.5t2 36v477q0 23 -2 36t-6 20t-11 10t-17 6l-37 8v28h329q138 0 208.5 -49t70.5 -155q0 -43 -15.5 -82t-47 -68.5t-78 -47t-107.5 -17.5q-29 0 -48.5 4.5t-27.5 7.5v31q38 0 64.5 7.5t43 26.5t24 50.5t7.5 80.5t-5.5 81.5
t-18 51.5t-33 26.5t-49.5 7.5q-19 0 -36.5 -2.5t-25.5 -4.5v-534q0 -22 1.5 -35t5.5 -20t12 -10t21 -6l44 -9v-28h-339v28z" />
    <glyph glyph-name="Q" unicode="Q" horiz-adv-x="728" 
d="M591 -174q-58 0 -102 15.5t-91 49.5q-30 20 -66.5 49.5t-74.5 65.5q-50 13 -92 40t-73 68.5t-48.5 97t-17.5 126.5q0 99 31 168.5t80 113.5t110 64.5t121 20.5q64 0 124.5 -20t107 -62.5t74.5 -109t28 -159.5q0 -76 -18.5 -133t-50 -97.5t-73 -66.5t-88.5 -40v-3
q20 -18 43 -36t49 -35q36 -23 64 -31t54 -8q23 0 46 7.5t37 12.5v-27q-10 -11 -25.5 -23t-37 -23t-49.5 -18t-62 -7zM366 28q37 0 64.5 14.5t45.5 49.5t27 93.5t9 146.5t-8 150.5t-26 103t-46.5 59.5t-69.5 19q-36 0 -63.5 -14.5t-46 -49.5t-27.5 -94t-9 -147
q0 -87 7.5 -150t25.5 -103t46.5 -59t70.5 -19z" />
    <glyph glyph-name="R" unicode="R" horiz-adv-x="704" 
d="M17 28l34 7q11 3 18.5 6t12 10.5t6.5 20.5t2 36v477q0 23 -2 36t-6.5 20.5t-12 10.5t-18.5 6l-34 7v28h328q148 0 214 -46t66 -137q0 -65 -33 -105.5t-103 -61.5v-3q15 -33 35 -71t41.5 -75.5t44 -72.5t43.5 -63q8 -11 15.5 -15.5t22.5 -9.5l16 -5v-28h-222
q-21 29 -43.5 66.5t-44 78.5t-40.5 82t-33 76h-11h-17t-16 0.5t-9 0.5v-196q0 -23 1.5 -36t6 -20.5t11.5 -10.5t19 -6l34 -7v-28h-326v28zM318 342q32 0 55 7.5t38 25.5t22.5 47.5t7.5 73.5q0 86 -23 119.5t-81 33.5q-47 0 -66 -7v-296q4 -1 16 -2.5t31 -1.5z" />
    <glyph glyph-name="S" unicode="S" horiz-adv-x="528" 
d="M240 -12q-70 0 -122 9.5t-82 22.5l-12 193h32q21 -41 38 -70.5t37 -56.5q12 -17 24.5 -28t26 -17t30 -8.5t37.5 -2.5q59 0 87 29t28 77q0 22 -6.5 40t-23.5 34.5t-45.5 32.5t-72.5 33q-54 21 -90 43.5t-57.5 49.5t-30.5 58.5t-9 69.5q0 46 18 84t50.5 65.5t78 43
t101.5 15.5q65 0 106.5 -6.5t69.5 -17.5l10 -171h-31q-10 19 -18 34t-16 27.5t-16.5 24t-19.5 24.5q-10 12 -19 20.5t-19.5 13.5t-25 7.5t-34.5 2.5q-52 0 -79 -24.5t-27 -69.5q0 -21 5 -37t19 -31t40.5 -29.5t70.5 -30.5q58 -23 98 -46t65 -49.5t36.5 -57.5t11.5 -68
q0 -48 -17.5 -90.5t-51 -74t-82.5 -50t-113 -18.5z" />
    <glyph glyph-name="T" unicode="T" horiz-adv-x="634" 
d="M148 28l37 7q13 3 21 6t12.5 10.5t6 20.5t1.5 36v541h-10q-23 0 -37.5 -1.5t-25.5 -6.5t-20 -14t-19 -24q-18 -26 -32.5 -57.5t-36.5 -83.5h-32l8 231h592l8 -231h-31q-22 52 -37 83.5t-33 57.5q-11 15 -19.5 24.5t-19 14t-25.5 6t-38 1.5h-10v-541q0 -23 1.5 -36
t5.5 -20.5t12 -10.5t22 -6l37 -7v-28h-338v28z" />
    <glyph glyph-name="U" unicode="U" horiz-adv-x="703" 
d="M373 -12q-63 0 -116.5 12t-91.5 40t-59.5 72.5t-21.5 109.5v363q0 23 -2 36t-6.5 20.5t-12 10.5t-19.5 6l-34 7v28h328v-28l-33 -7q-12 -3 -19.5 -6t-12 -10.5t-6 -20.5t-1.5 -36v-383q0 -78 35 -113.5t120 -35.5q79 0 113.5 43t34.5 120v354q0 28 -1.5 44t-7 24.5
t-15 12.5t-24.5 7l-39 7v28h211v-28l-31 -7q-11 -3 -19 -6t-13 -11.5t-7 -23.5t-2 -42v-366q0 -46 -14.5 -86.5t-45 -70.5t-77.5 -47t-111 -17z" />
    <glyph glyph-name="V" unicode="V" horiz-adv-x="675" 
d="M87 560q-9 25 -16.5 42.5t-14.5 29t-15.5 18.5t-20.5 10l-23 5v28h332v-28l-28 -7q-35 -8 -35 -39q0 -13 5.5 -32t13.5 -42l123 -358h5l114 357q15 46 15 72q0 19 -9 28t-29 14l-31 7v28h205v-28l-25 -7q-11 -3 -19 -9.5t-15 -18t-13.5 -29.5t-15.5 -44l-193 -557h-99z
" />
    <glyph glyph-name="W" unicode="W" horiz-adv-x="1013" 
d="M84 570q-9 24 -15 40.5t-12.5 26.5t-14 15t-18.5 8l-25 5v28h323v-28l-25 -6q-17 -5 -25 -13t-8 -25q0 -15 5 -35t12 -41l109 -349h5l94 288l-31 100q-12 37 -24 53t-33 22l-23 6v28h323v-28l-36 -7q-31 -8 -31 -41q0 -14 4 -32.5t11 -39.5l109 -349h5l101 350
q6 20 9.5 38t3.5 33q0 19 -9 28.5t-27 13.5l-32 6v28h205v-28l-23 -5q-24 -7 -37.5 -32t-32.5 -82l-172 -546h-104l-127 405h-4l-134 -405h-106z" />
    <glyph glyph-name="X" unicode="X" horiz-adv-x="701" 
d="M10 28l18 4q12 4 22.5 9t21 14t22.5 24.5t28 40.5l139 214l-154 252q-11 17 -18.5 28.5t-15 20t-16 14t-20.5 9.5l-21 7v28h352v-28l-36 -7q-29 -8 -29 -32q0 -11 6.5 -26t20.5 -40l82 -144h3l82 147q12 22 16.5 37.5t4.5 26.5q0 14 -9.5 21.5t-26.5 10.5l-29 6v28h217
v-28l-24 -6q-11 -3 -19.5 -8t-17.5 -15t-19.5 -26t-26.5 -41l-121 -196l160 -264q14 -23 24 -36.5t17.5 -21.5t14 -11.5t15.5 -6.5l19 -5v-28h-348v28l35 6q31 6 31 32q0 11 -7 27t-20 39l-93 161h-3l-92 -156q-28 -46 -28 -70q0 -27 30 -33l31 -6v-28h-218v28z" />
    <glyph glyph-name="Y" unicode="Y" horiz-adv-x="648" 
d="M166 28l37 7q13 3 21.5 6t12.5 10.5t5.5 20.5t1.5 36v177l-156 288q-13 24 -22 39t-16.5 24.5t-15.5 14.5t-18 8l-20 6v28h342v-28l-29 -6q-38 -10 -38 -41q0 -11 5 -25t13 -32l105 -214h5l92 207q11 22 14 36.5t3 26.5q0 16 -9 26t-32 15l-27 7v28h212v-28l-21 -6
q-11 -4 -20 -10.5t-18 -18t-18.5 -28t-20.5 -40.5l-128 -271v-183q0 -23 1.5 -36t6 -20.5t12.5 -10.5t22 -6l37 -7v-28h-339v28z" />
    <glyph glyph-name="Z" unicode="Z" horiz-adv-x="579" 
d="M18 44l350 605v3h-36q-51 0 -82 -1.5t-50 -6t-30 -14t-22 -24.5q-10 -14 -18 -27t-16.5 -28t-17.5 -34.5l-21 -45.5h-30l12 222h508v-44l-349 -602v-4h42q54 0 87 2t53 8t32.5 16.5t25.5 27.5q11 15 20 30t18 32t18.5 38t20.5 47h32l-16 -244h-531v44z" />
    <glyph glyph-name="a" unicode="a" horiz-adv-x="532" 
d="M167 -12q-71 0 -110.5 34.5t-39.5 97.5q0 33 12 57.5t35.5 42.5t57 31t75.5 23l101 25v87q0 62 -15 85t-56 23q-23 0 -31.5 -7.5t-10.5 -28.5q-4 -48 -21.5 -68t-56.5 -20q-33 0 -50.5 16.5t-17.5 45.5q0 48 58 74.5t163 26.5q94 0 146 -31.5t52 -105.5v-277
q0 -28 4.5 -41t18.5 -21q10 -5 23 -7t24 -3v-24q-14 -11 -43.5 -23t-73.5 -12q-87 0 -104 61h-5q-19 -24 -52.5 -42.5t-82.5 -18.5zM242 59q21 0 35 8t21 21v160l-46 -4q-38 -3 -58 -24t-20 -75q0 -49 19.5 -67.5t48.5 -18.5z" />
    <glyph glyph-name="b" unicode="b" horiz-adv-x="605" 
d="M286 -12q-74 0 -128 14t-99 43v582q0 18 -1 29t-4 18t-9.5 11.5t-16.5 9.5l-37 18v23l220 20l11 -8q-1 -14 -2 -32q-1 -16 -1 -37.5v-47.5v-68q0 -21 -0.5 -38.5t-1.5 -30.5q-1 -15 -1 -28h5q29 26 70.5 46.5t95.5 20.5q35 0 70 -12.5t62.5 -41.5t45 -76t17.5 -116
q0 -78 -22 -134.5t-61.5 -93t-94 -54t-118.5 -17.5zM298 28q30 0 52.5 9.5t37.5 34.5t22.5 68.5t7.5 112.5q0 54 -8 90.5t-23 59.5t-37.5 33t-50.5 10q-29 0 -49 -6.5t-31 -11.5v-364q13 -16 33 -26t46 -10z" />
    <glyph glyph-name="c" unicode="c" horiz-adv-x="496" 
d="M270 -12q-61 0 -107.5 19t-78.5 54.5t-48.5 85t-16.5 111.5q0 78 28 131t71.5 85t97.5 45.5t107 13.5q75 0 117 -23.5t42 -69.5q0 -31 -19.5 -50.5t-51.5 -19.5q-39 0 -54 23t-18 55q-4 28 -11.5 36t-32.5 8q-21 0 -42 -7.5t-37.5 -28.5t-26.5 -58.5t-10 -96.5
q0 -110 36 -168.5t120 -58.5q47 0 82 11.5t63 25.5v-32q-11 -14 -30 -29.5t-45.5 -29.5t-60.5 -23t-74 -9z" />
    <glyph glyph-name="d" unicode="d" horiz-adv-x="617" 
d="M219 -12q-37 0 -72.5 14t-63 44.5t-44 79t-16.5 116.5q0 78 23.5 133t63 90.5t92 51.5t111.5 16q20 0 40 -3t36 -8q-1 11 -1 23q-1 11 -1 23.5v26.5v32q0 18 -1 28t-4.5 16.5t-9.5 10.5t-16 9l-41 22v23l224 20l10 -8q-1 -14 -2 -32q-1 -16 -1 -37.5v-47.5v-511
q0 -18 1 -29.5t4.5 -18t10 -11t17.5 -8.5l29 -12v-24l-207 -29l-11 8l2 57h-4q-32 -28 -74 -46.5t-95 -18.5zM303 67q31 0 51.5 8.5t32.5 13.5v362q-13 16 -31.5 29t-46.5 13q-27 0 -49.5 -11t-38.5 -36.5t-25 -67t-9 -103.5q0 -59 7.5 -99t22 -64t36 -34.5t50.5 -10.5z" />
    <glyph glyph-name="e" unicode="e" horiz-adv-x="526" 
d="M280 -12q-131 0 -196 73t-65 201q0 65 22 115.5t59 85t83.5 52.5t96.5 18q52 0 93.5 -13.5t70.5 -43.5t45.5 -77.5t17.5 -115.5h-330q1 -62 13 -102t33.5 -64t52 -33.5t69.5 -9.5q47 0 82.5 11.5t64.5 26.5v-33q-13 -15 -33.5 -31t-47.5 -29.5t-60 -22t-71 -8.5zM272 495
q-19 0 -35.5 -9.5t-29.5 -30.5t-21 -54t-9 -80l171 9q0 45 -3.5 76.5t-12 51t-23.5 28.5t-37 9z" />
    <glyph glyph-name="f" unicode="f" horiz-adv-x="352" 
d="M11 27l26 7q12 3 19.5 6.5t11.5 9.5t5 15.5t1 25.5v369h-70v25l70 35v27q0 101 67 157.5t184 56.5q60 0 93 -20.5t33 -59.5q0 -26 -15.5 -41t-44.5 -15q-34 0 -51 14.5t-20 53.5q-2 19 -6 24t-13 5q-14 0 -26 -4.5t-21.5 -16.5t-15 -32t-5.5 -51v-99h116l-14 -59h-102
v-367q0 -18 1 -28.5t4.5 -16.5t10.5 -8.5t19 -4.5l38 -8v-27h-295v27z" />
    <glyph glyph-name="g" unicode="g" horiz-adv-x="527" 
d="M214 -211q-112 0 -169.5 30.5t-57.5 86.5q0 35 32.5 61t93.5 40v4q-42 9 -64 34.5t-22 61.5q0 21 7.5 39t18.5 32.5t25 26.5t26 21v4q-36 18 -58 50.5t-22 77.5q0 43 17 75.5t46.5 54.5t68.5 33.5t83 11.5q36 0 65.5 -6t57.5 -18q23 21 52.5 35.5t61.5 14.5
q28 0 45.5 -13.5t17.5 -40.5q0 -23 -11 -40t-38 -17q-23 0 -33 9.5t-18 26.5q-7 14 -22 14t-33 -9v-3q29 -17 49.5 -46.5t20.5 -68.5q0 -43 -17 -75.5t-46.5 -54t-68.5 -32.5t-83 -11q-57 0 -103 17q-8 -7 -15 -19t-7 -25q0 -15 11.5 -24.5t38.5 -9.5h175q36 0 66.5 -6.5
t53.5 -22t36 -41.5t13 -65q0 -43 -18 -81.5t-55 -68t-92 -46.5t-129 -17zM235 -172q88 0 129 28t41 77q0 33 -20.5 49.5t-67.5 16.5h-168q-14 -7 -27.5 -25.5t-13.5 -48.5q0 -45 29 -71t98 -26zM239 237q35 0 51 26t16 98q0 78 -16.5 106t-50.5 28q-35 0 -51 -27t-16 -99
q0 -39 4 -64.5t12 -40.5t21 -21t30 -6z" />
    <glyph glyph-name="h" unicode="h" horiz-adv-x="627" 
d="M11 27l26 7q12 3 19.5 6.5t11.5 9.5t5 15.5t1 25.5v536q0 18 -1 29t-4 18t-9.5 11.5t-16.5 9.5l-37 18v23l220 20l11 -8q-1 -15 -2 -33q-1 -16 -1.5 -37.5t-0.5 -46.5v-68q0 -21 -0.5 -38.5t-1.5 -31.5q-1 -16 -1 -29h5q41 28 87.5 48.5t101.5 20.5q64 0 97.5 -33
t33.5 -101v-308q0 -17 1 -26.5t5 -15.5t11 -9t19 -6l26 -7v-27h-279v27l24 6q11 3 17.5 6t10 8.5t4.5 15.5t1 28v269q0 46 -17 63t-52 17q-26 0 -51 -4.5t-42 -8.5v-336q0 -18 1 -28t4.5 -16t10 -8.5t17.5 -5.5l24 -6v-27h-279v27z" />
    <glyph glyph-name="i" unicode="i" horiz-adv-x="305" 
d="M11 27l26 7q12 3 19.5 6.5t11.5 9.5t5 15.5t1 25.5v311q0 16 -1 25.5t-5 16t-10.5 11.5t-16.5 12l-33 22v20l219 24l10 -7q-2 -23 -3 -51t-1 -64v-320q0 -17 1 -27t5 -15.5t11.5 -8.5t19.5 -6l26 -7v-27h-285v27zM149 582q-37 0 -62.5 23t-25.5 59q0 37 25.5 60t62.5 23
t62.5 -23t25.5 -60q0 -36 -25.5 -59t-62.5 -23z" />
    <glyph glyph-name="j" unicode="j" horiz-adv-x="300" 
d="M16 -212q-67 0 -99.5 26.5t-32.5 65.5q0 29 18 44t47 15q35 0 51 -17t21 -67q2 -17 5.5 -22t10.5 -5q37 0 37 60v514q0 16 -1 25.5t-5 16t-10.5 11.5t-16.5 12l-33 22v20l219 24l10 -7q-2 -23 -3 -51.5t-1 -63.5v-404q0 -54 -16 -94.5t-45 -68.5t-69 -42t-87 -14z
M149 582q-38 0 -63 23t-25 59q0 37 25 60t63 23q37 0 62 -23t25 -60q0 -36 -25 -59t-62 -23z" />
    <glyph glyph-name="k" unicode="k" horiz-adv-x="594" 
d="M400 0q-46 63 -84 126t-68 120v16l113 122q25 28 32.5 44.5t7.5 29.5q0 21 -37 30l-15 5v26h219v-26l-21 -6q-10 -3 -18.5 -6.5t-18 -10t-22 -17.5t-29.5 -28l-91 -93q19 -36 41.5 -73.5t45 -73.5t44 -67.5t40.5 -55.5q18 -24 38 -29l17 -6v-27h-194zM11 27l26 7
q12 3 19.5 6.5t11.5 9.5t5 15.5t1 25.5v536q0 18 -1 29t-4 18t-9.5 11.5t-16.5 9.5l-37 18v23l220 20l11 -8q-1 -15 -2 -33q-1 -16 -1.5 -37.5t-0.5 -46.5v-540q0 -17 1 -27t4.5 -16t9.5 -9t17 -6l23 -6v-27h-277v27z" />
    <glyph glyph-name="l" unicode="l" horiz-adv-x="309" 
d="M11 27l26 7q13 3 21 6.5t12 9.5t5 15.5t1 25.5v536q0 18 -1 29t-4.5 17.5t-10 11t-17.5 10.5l-37 18v23l222 20l11 -8q-1 -15 -2 -33q-1 -16 -1.5 -37.5t-0.5 -46.5v-540q0 -17 1 -26.5t5 -15.5t12 -9t21 -6l26 -7v-27h-289v27z" />
    <glyph glyph-name="m" unicode="m" horiz-adv-x="924" 
d="M11 27l26 7q12 3 19.5 6.5t11.5 9.5t5 15.5t1 25.5v311q0 16 -1 25.5t-5 16t-10.5 11.5t-16.5 12l-33 22v20l211 24l11 -8l-2 -63h4q40 29 85.5 50t98.5 21q47 0 75.5 -18.5t42.5 -53.5h5q41 29 86.5 50.5t102.5 21.5q59 0 91.5 -33.5t32.5 -100.5v-308q0 -17 1 -26.5
t5 -15.5t11 -9t19 -6l26 -7v-27h-276v27l23 6q10 3 16.5 6t9.5 8.5t4 15.5t1 28v269q0 45 -13.5 62.5t-48.5 17.5q-26 0 -49 -4.5t-40 -9.5q1 -6 1.5 -14.5t0.5 -19.5v-301q0 -18 1 -28t4 -15.5t9 -8.5t16 -6l23 -6v-27h-267v27l23 6q10 3 16 6t9.5 8.5t4.5 15.5t1 28v269
q0 45 -13.5 62.5t-48.5 17.5q-26 0 -48.5 -4.5t-39.5 -8.5v-336q0 -18 1 -28t4.5 -16t9.5 -8.5t16 -5.5l23 -6v-27h-276v27z" />
    <glyph glyph-name="n" unicode="n" horiz-adv-x="627" 
d="M11 27l26 7q12 3 19.5 6.5t11.5 9.5t5 15.5t1 25.5v311q0 16 -1 25.5t-5 16t-10.5 11.5t-16.5 12l-33 22v20l211 24l11 -7l-2 -64h4q40 29 88.5 50t103.5 21q64 0 97.5 -33t33.5 -101v-308q0 -17 1 -26.5t5 -15.5t11 -9t19 -6l26 -7v-27h-279v27l24 6q11 3 17.5 6t10 8.5
t4.5 15.5t1 28v269q0 46 -17 63t-52 17q-26 0 -51 -4.5t-42 -8.5v-336q0 -18 1 -28t4.5 -16t10 -8.5t17.5 -5.5l24 -6v-27h-279v27z" />
    <glyph glyph-name="o" unicode="o" horiz-adv-x="581" 
d="M290 -12q-54 0 -103.5 16.5t-86.5 50.5t-59 84.5t-22 119.5q0 72 23.5 124t61.5 85t86.5 49t99.5 16q54 0 103.5 -16.5t87 -50t59.5 -84t22 -118.5q0 -72 -23 -124t-61 -86t-87 -50t-101 -16zM293 27q22 0 41 8.5t32 33t20.5 69t7.5 116.5q0 76 -7 123t-21 73t-34 35
t-45 9q-24 0 -42.5 -10t-31 -34.5t-19.5 -67t-7 -106.5q0 -77 6.5 -125.5t19.5 -76t33 -37.5t47 -10z" />
    <glyph glyph-name="p" unicode="p" horiz-adv-x="620" 
d="M11 -179l26 7q12 3 19.5 6.5t11.5 9.5t5 15.5t1 26.5v516q0 16 -1 25.5t-5 16t-10.5 11.5t-16.5 12l-33 22v20l211 24l11 -7l-2 -62h5q32 27 73.5 48t94.5 21q36 0 71 -12.5t62.5 -41.5t45 -76t17.5 -116q0 -78 -21.5 -134.5t-60 -93t-91.5 -54t-116 -17.5
q-16 0 -37.5 2.5t-38.5 7.5v-17q0 -8 0.5 -19.5t0.5 -24.5v-51q0 -17 1 -27t4.5 -16t10.5 -8.5t19 -5.5l35 -8v-27h-292v27zM312 28q30 0 52.5 9.5t37.5 34.5t23 68.5t8 112.5q0 54 -8 90.5t-23 59.5t-37.5 33t-50.5 10q-30 0 -49.5 -6.5t-31.5 -11.5v-364q14 -16 33.5 -26
t45.5 -10z" />
    <glyph glyph-name="q" unicode="q" horiz-adv-x="609" 
d="M317 -179l35 8q12 3 19 5.5t10.5 8.5t4.5 16t1 27v87q0 17 0.5 31.5t1.5 25.5q1 12 3 23h-5q-32 -28 -73.5 -46.5t-94.5 -18.5q-37 0 -72.5 14t-63 44.5t-44 79t-16.5 116.5q0 78 23.5 133t63 90.5t92 51.5t111.5 16q56 0 93.5 -12t70.5 -31h7l45 43l17 -7v-640
q0 -17 1 -26.5t5 -15.5t11.5 -9.5t19.5 -6.5l26 -7v-27h-292v27zM303 67q31 0 51.5 8.5t32.5 13.5v368q-13 13 -32 24.5t-46 11.5t-49.5 -11t-38.5 -36.5t-25 -67t-9 -103.5q0 -59 7.5 -99t22 -64t36 -34.5t50.5 -10.5z" />
    <glyph glyph-name="r" unicode="r" horiz-adv-x="463" 
d="M11 27l26 7q12 3 19.5 6.5t11.5 9.5t5 15.5t1 25.5v311q0 16 -1 25.5t-5 16t-10.5 11.5t-16.5 12l-33 22v20l211 24l11 -8l-2 -69h4q12 12 28 26t35 25t40 18.5t43 7.5q36 0 56.5 -19t20.5 -56q0 -36 -20 -55.5t-49 -19.5q-17 0 -28.5 2.5t-20 8t-15 14t-13.5 20.5
q-5 8 -9.5 10.5t-11.5 2.5q-14 0 -29 -8t-26 -18v-324q0 -18 1 -28t4.5 -16t10.5 -8.5t18 -4.5l33 -7v-27h-289v27z" />
    <glyph glyph-name="s" unicode="s" horiz-adv-x="432" 
d="M188 -12q-44 0 -85.5 6t-71.5 15l-7 156h28q16 -30 31.5 -53t33.5 -46q15 -19 35 -28.5t52 -9.5q36 0 59.5 18t23.5 53q0 17 -6 30.5t-20 24.5t-37 22t-56 24q-68 25 -106 62.5t-38 102.5q0 36 14 66.5t41 53t67 35.5t91 13q43 0 79 -5.5t58 -13.5l6 -136h-27
q-15 27 -28.5 47t-28.5 37q-17 19 -33.5 25.5t-43.5 6.5q-32 0 -51.5 -17t-19.5 -48q0 -14 4 -26t15.5 -23t30.5 -21.5t49 -21.5q90 -33 128 -72.5t38 -97.5q0 -79 -57.5 -129t-167.5 -50z" />
    <glyph glyph-name="t" unicode="t" horiz-adv-x="365" 
d="M202 -12q-68 0 -103.5 32t-35.5 106v334h-63v24q59 23 102 65.5t64 102.5h57v-133h133l-13 -59h-120v-324q0 -38 13.5 -54t51.5 -16q18 0 38 3t34 6v-28q-9 -8 -23 -18.5t-33.5 -19.5t-45 -15t-56.5 -6z" />
    <glyph glyph-name="u" unicode="u" horiz-adv-x="624" 
d="M203 -12q-60 0 -95.5 33.5t-35.5 99.5v286q0 16 -1 25.5t-4 15.5t-9 11t-17 11l-35 20v21l214 22l12 -9v-364q0 -45 17 -63.5t51 -18.5q27 0 51.5 7t42.5 13v309q0 16 -1 25.5t-4 16t-9.5 11t-17.5 10.5l-34 20v21l213 22l12 -9v-404q0 -18 1 -29.5t4.5 -18t10 -11
t17.5 -8.5l29 -12v-24l-207 -29l-11 8l2 67h-5q-40 -29 -86.5 -52t-104.5 -23z" />
    <glyph glyph-name="v" unicode="v" horiz-adv-x="556" 
d="M74 408q-9 21 -15.5 35t-13.5 23t-14 13.5t-17 7.5l-19 6v26h301v-26l-27 -7q-16 -5 -23.5 -13.5t-7.5 -27.5q0 -11 3.5 -24t9.5 -30l84 -231h5l81 231q13 35 13 56q0 17 -7.5 25.5t-23.5 13.5l-27 7v26h185v-26l-19 -6q-10 -3 -17.5 -8.5t-14 -15t-14 -25.5t-16.5 -41
l-155 -397h-85z" />
    <glyph glyph-name="w" unicode="w" horiz-adv-x="840" 
d="M74 408q-8 22 -15 36t-13.5 22.5t-14 13t-17.5 7.5l-19 6v26h282v-26l-22 -6q-25 -7 -25 -31q0 -11 4.5 -27.5t11.5 -37.5l74 -231h6l74 215l-11 33q-8 22 -14 36.5t-11.5 23t-12 12.5t-14.5 7l-20 6v26h279v-26l-27 -7q-28 -7 -28 -39q0 -20 12 -56l76 -231h5l72 231
q6 20 9 33t3 24q0 30 -31 38l-27 7v26h185v-26l-18 -6q-10 -3 -17.5 -8.5t-14.5 -15t-14.5 -25.5t-16.5 -41l-144 -397h-86l-108 308h-3l-112 -308h-85z" />
    <glyph glyph-name="x" unicode="x" horiz-adv-x="587" 
d="M9 27l22 5q12 3 21 8t18.5 13.5t19.5 21.5t23 32l98 140l-116 170q-15 21 -25 34t-17.5 20.5t-15 11t-16.5 6.5l-14 4v26h302v-26l-21 -5q-14 -3 -22 -10t-8 -18q0 -17 20 -48l64 -96h3l46 82q12 22 16.5 35.5t4.5 24.5q0 12 -7.5 18.5t-23.5 11.5l-22 5v26h197v-26
l-20 -6q-22 -5 -41 -23t-44 -57l-82 -127l124 -177q14 -20 23 -32t16.5 -20t15.5 -12.5t20 -8.5l13 -3v-27h-302v27l23 4q27 6 27 27q0 11 -6.5 23.5t-19.5 32.5l-66 98h-3l-53 -88q-14 -23 -20 -38t-6 -26q0 -12 7.5 -18.5t26.5 -10.5l20 -4v-27h-200v27z" />
    <glyph glyph-name="y" unicode="y" horiz-adv-x="558" 
d="M122 -208q-45 0 -74 20.5t-29 53.5q0 28 17 43.5t46 15.5q30 0 44.5 -12t22.5 -39q5 -20 19 -20q16 0 34 22t44 82l11 26l-186 423q-11 24 -18 38.5t-13 23t-12 12t-14 6.5l-18 6v26h295v-26l-27 -7q-15 -5 -23 -13.5t-8 -25.5q0 -22 14 -56l88 -223h4l84 223
q14 37 14 60q0 15 -8 22.5t-24 12.5l-28 7v26h186v-26l-23 -8q-9 -3 -15.5 -8t-12.5 -14.5t-13 -25t-17 -40.5l-186 -448q-15 -35 -30.5 -64t-35 -49.5t-46 -32t-62.5 -11.5z" />
    <glyph glyph-name="z" unicode="z" horiz-adv-x="489" 
d="M12 43l285 430v4h-48q-27 0 -45 -1t-30.5 -4t-21 -9t-17.5 -16q-20 -21 -34 -44t-36 -61h-27l11 177h425v-40l-284 -433v-4h49q34 0 56.5 1.5t37 6t24.5 11.5t19 19q18 23 34.5 48t33.5 56h28l-16 -184h-444v43z" />
    <glyph glyph-name="quoteleft" unicode="&#x2018;" horiz-adv-x="216" 
d="M113 453q-33 0 -60 23t-27 69q0 61 39.5 102t117.5 58l7 -22q-48 -22 -69.5 -49.5t-20.5 -57.5q4 3 11.5 6t17.5 3q26 0 43 -17.5t17 -48.5t-22.5 -48.5t-53.5 -17.5z" />
    <glyph glyph-name="quoteright" unicode="&#x2019;" horiz-adv-x="216" 
d="M26 476q48 21 70 48.5t20 57.5q-4 -3 -11.5 -6t-17.5 -3q-26 0 -42.5 17.5t-16.5 48.5t22 48.5t53 17.5q34 0 60.5 -23t26.5 -69q0 -61 -39.5 -102t-116.5 -58z" />
    <glyph glyph-name="quotedblleft" unicode="&#x201c;" horiz-adv-x="418" 
d="M113 453q-33 0 -60 23t-27 69q0 61 39.5 102t117.5 58l7 -22q-48 -22 -69.5 -49.5t-20.5 -57.5q4 3 11.5 6t17.5 3q26 0 43 -17.5t17 -48.5t-22.5 -48.5t-53.5 -17.5zM315 453q-33 0 -60 23t-27 69q0 61 39.5 102t117.5 58l7 -22q-48 -22 -69.5 -49.5t-20.5 -57.5
q4 3 11.5 6t17.5 3q26 0 43 -17.5t17 -48.5t-22.5 -48.5t-53.5 -17.5z" />
    <glyph glyph-name="quotedblright" unicode="&#x201d;" horiz-adv-x="418" 
d="M26 476q48 21 70 48.5t20 57.5q-4 -3 -11.5 -6t-17.5 -3q-26 0 -42.5 17.5t-16.5 48.5t22 48.5t53 17.5q34 0 60.5 -23t26.5 -69q0 -61 -39.5 -102t-116.5 -58zM228 476q48 21 70 48.5t20 57.5q-4 -3 -11.5 -6t-17.5 -3q-26 0 -42.5 17.5t-16.5 48.5t22 48.5t53 17.5
q34 0 60.5 -23t26.5 -69q0 -61 -39.5 -102t-117.5 -58z" />
    </font>
</defs>
</svg>
